<?xml version="1.0" standalone="no"?>
<!DOCTYPE svg PUBLIC "-//W3C//DTD SVG 1.1//EN" "http://www.w3.org/Graphics/SVG/1.1/DTD/svg11.dtd" >
<svg xmlns="http://www.w3.org/2000/svg">
<metadata>
<json>
{
	"fontFamily": "gravityfont",
	"majorVersion": 1,
	"minorVersion": 2,
	"copyright": "Copyright 2014-2015 Rocketgenius Inc.",
	"designerURL": "http://www.rocketgenius.com",
	"fontURL": "http://www.gravityforms.com",
	"version": "Version 1.2",
	"fontId": "gravityfont",
	"psName": "gravityfont",
	"subFamily": "Regular",
	"fullName": "gravityfont",
	"description": "Font generated by IcoMoon."
}
</json>
</metadata>
<defs>
<font id="gravityfont" horiz-adv-x="512">
<font-face units-per-em="512" ascent="480" descent="-32" />
<missing-glyph horiz-adv-x="512" />
<glyph unicode="&#x20;" d="" horiz-adv-x="256" />
<glyph unicode="&#xe600;" d="M465.036 315.724c-0.004 23.386-16.565 52.094-36.832 63.789l-158.854 91.716c-20.254 11.695-53.409 11.695-73.662 0l-158.856-91.716c-20.258-11.691-36.831-40.403-36.831-63.789v-183.439c0-23.394 16.571-52.1 36.831-63.799l158.858-91.719c20.257-11.689 53.413-11.689 73.662 0l158.854 91.719c20.269 11.697 36.831 40.407 36.831 63.799v183.439zM362.787 162.394l-3.514-21.615c-1.079-7.564-5.402-11.349-12.968-11.349h-218.858c-31.612 0-48.365 15.942-48.365 43.502 0 4.051 0.27 8.377 1.081 12.968l11.887 76.195c5.674 35.666 23.508 56.471 65.118 56.471h218.861c7.566 0 10.806-3.783 9.728-11.349l-3.514-21.614c-1.079-7.566-5.673-11.349-13.238-11.349h-204.81c-12.968 0-21.074-7.025-22.965-19.993l-9.727-60.524c-0.27-1.623-0.27-3.243-0.27-4.594 0-9.998 5.674-15.402 17.023-15.402h204.81c7.564 0.002 10.805-3.779 9.726-11.346z" horiz-adv-x="465" data-tags="Gravitycharge, Logo" />
<glyph unicode="&#xe601;" d="M332.626 256.964c0.27 1.621 0.27 2.973 0.27 4.324 0 9.727-5.675 15.4-16.751 15.4h-150.502c-12.7 0-20.806-7.296-22.968-19.723l-10.268-65.926c-0.27-1.623-0.541-3.245-0.541-4.865 0-9.457 5.945-14.861 17.021-14.861h150.5c12.7 0 20.806 7.566 22.968 19.725l10.27 65.928zM465.036 315.724c-0.004 23.386-16.565 52.094-36.832 63.789l-158.854 91.716c-20.254 11.695-53.409 11.695-73.662 0l-158.856-91.716c-20.258-11.691-36.831-40.403-36.831-63.789v-183.439c0-23.394 16.571-52.1 36.831-63.799l158.858-91.719c20.257-11.689 53.413-11.689 73.662 0l158.854 91.719c20.269 11.697 36.831 40.407 36.831 63.799v183.439zM306.147 129.432h-176.98c-30.261 0-46.744 14.861-46.744 41.88 0 3.785 0.27 7.836 1.081 12.159l12.968 81.058c5.404 34.584 22.425 54.039 62.416 54.039h176.98c30.262 0 46.744-14.861 46.744-41.88 0-3.783-0.543-7.836-1.083-12.159l-12.968-81.058c-5.404-34.587-22.425-54.039-62.414-54.039z" horiz-adv-x="465" data-tags="zero" />
<glyph unicode="&#xe602;" d="M154.939 244.805h172.655l1.892 12.16c0.27 1.621 0.27 3.242 0.27 4.593 0 9.728-5.673 15.132-16.751 15.132h-152.934c-10.268 0-17.023-4.863-18.374-14.591l-0.27-1.892c-0.27-2.161-0.27-3.243-0.27-4.323 0.002-7.296 4.865-11.078 13.782-11.078zM465.036 315.724c-0.004 23.386-16.565 52.094-36.832 63.789l-158.854 91.716c-20.254 11.695-53.409 11.695-73.662 0l-158.856-91.716c-20.258-11.691-36.831-40.403-36.831-63.789v-183.439c0-23.394 16.571-52.1 36.831-63.799l158.858-91.719c20.257-11.689 53.413-11.689 73.662 0l158.854 91.719c20.269 11.697 36.831 40.407 36.831 63.799v183.439zM294.63 129.432h-199.675c-7.025 0-10.268 3.785-9.187 10.808l3.24 20.264c1.081 7.026 5.404 10.807 12.43 10.807h189.137c16.753 0 26.75 8.647 29.452 25.13l1.081 6.755h-179.412c-31.072 0-50.255 9.726-50.255 35.935 0 3.243 0.27 6.755 0.808 10.538l3.513 22.428c5.404 34.315 23.779 46.474 64.037 46.474h172.925c30.264 0 46.744-14.861 46.744-41.88 0-3.783-0.543-7.836-1.083-12.159l-11.619-72.144c-6.209-40.259-26.204-62.954-72.137-62.954z" horiz-adv-x="465" data-tags="nine" />
<glyph unicode="&#xe603;" d="M311.144 203.195h-160.763c-10.268 0-17.293-4.863-18.374-14.589l-0.27-2.161c-0.27-1.892-0.27-2.973-0.27-4.053 0-7.296 4.863-11.079 13.78-11.079h160.766c10.27 0 17.296 4.863 18.374 14.591l0.27 2.161c0.27 1.889 0.27 2.973 0.27 4.051-0.004 7.293-4.865 11.079-13.783 11.079zM465.036 315.724c-0.004 23.386-16.565 52.094-36.832 63.789l-158.854 91.716c-20.254 11.695-53.409 11.695-73.662 0l-158.856-91.716c-20.258-11.691-36.831-40.403-36.831-63.789v-183.439c0-23.394 16.571-52.1 36.831-63.799l158.858-91.719c20.257-11.689 53.413-11.689 73.662 0l158.854 91.719c20.269 11.697 36.831 40.407 36.831 63.799v183.439zM371.4 182.659l-1.083-6.755c-5.402-34.317-22.428-46.474-62.684-46.474h-176.98c-30.802 0-49.176 9.457-49.176 35.395 0 3.514 0.54 7.027 1.081 11.079l1.081 6.755c3.513 23.236 13.24 36.478 31.612 42.421-10.808 5.404-16.753 14.862-16.753 29.723 0 3.243 0.27 6.755 0.811 10.538l1.081 6.755c5.404 34.315 22.427 46.474 62.686 46.474h171.576c30.801 0 48.906-9.458 48.906-35.666 0-3.243-0.27-7.025-0.808-10.807l-0.813-6.755c-2.702-22.427-11.887-35.125-28.908-41.61 12.158-5.404 19.183-15.134 19.183-30.803-0.002-3.245-0.27-6.485-0.81-10.27zM159.565 244.805h155.363c10.27 0 16.751 4.863 18.374 14.591l0.27 1.621c0.27 2.161 0.27 3.512 0.27 4.593 0 7.296-4.863 11.079-13.781 11.079h-155.363c-10.266 0-17.293-4.863-18.372-14.591l-0.27-1.892c-0.27-2.161-0.27-3.243-0.27-4.323-0.002-7.296 4.862-11.078 13.779-11.078z" horiz-adv-x="465" data-tags="eight" />
<glyph unicode="&#xe604;" d="M465.036 315.724c-0.004 23.386-16.565 52.094-36.832 63.789l-158.854 91.716c-20.254 11.695-53.409 11.695-73.662 0l-158.856-91.716c-20.258-11.691-36.831-40.403-36.831-63.789v-183.439c0-23.394 16.571-52.1 36.831-63.799l158.858-91.719c20.257-11.689 53.413-11.689 73.662 0l158.854 91.719c20.269 11.697 36.831 40.407 36.831 63.799v183.439zM181.856 137.536c-7.296-5.675-12.157-8.106-21.074-8.106h-42.422c-7.025 0-8.106 8.647-2.432 12.968l175.629 134.288h-195.352c-7.025 0-10.268 3.783-9.187 10.808l3.243 20.265c1.081 7.026 5.404 10.809 12.43 10.809h266.145c7.026 0 10.268-3.783 9.187-10.809l-2.161-13.51c-1.081-6.755-5.404-11.349-10.268-15.131l-183.736-141.581z" horiz-adv-x="465" data-tags="seven" />
<glyph unicode="&#xe605;" d="M310.099 203.195h-172.657l-1.892-12.158c-0.27-1.623-0.541-3.245-0.541-4.865 0-9.457 5.945-14.861 17.023-14.861h152.931c10.268 0 17.293 4.863 18.374 14.591l0.27 2.432c0.272 1.351 0.272 2.704 0.272 3.783-0.002 7.293-4.868 11.079-13.783 11.079zM465.036 315.724c-0.004 23.386-16.565 52.094-36.832 63.789l-158.854 91.716c-20.254 11.695-53.409 11.695-73.662 0l-158.856-91.716c-20.258-11.691-36.831-40.403-36.831-63.789v-183.439c0-23.394 16.571-52.1 36.831-63.799l158.858-91.719c20.257-11.689 53.413-11.689 73.662 0l158.854 91.719c20.269 11.697 36.831 40.407 36.831 63.799v183.439zM372.785 198.331l-3.512-22.428c-5.404-34.317-23.779-46.474-64.038-46.474h-172.927c-30.261 0-46.744 14.861-46.744 41.88 0 3.785 0.27 7.836 1.081 12.159l11.349 72.142c6.485 40.259 26.478 62.957 72.414 62.957h199.675c7.026 0 10.266-3.783 9.187-10.808l-3.245-20.266c-1.079-7.026-5.402-10.809-12.428-10.809h-189.137c-16.753 0-26.75-8.646-29.452-25.127l-1.081-6.755h179.41c31.072 0 50.255-9.727 50.255-36.208 0.002-3.238-0.268-6.481-0.807-10.264z" horiz-adv-x="465" data-tags="six" />
<glyph unicode="&#xe606;" d="M465.036 315.724c-0.004 23.386-16.565 52.094-36.832 63.789l-158.854 91.716c-20.254 11.695-53.409 11.695-73.662 0l-158.856-91.716c-20.258-11.691-36.831-40.403-36.831-63.789v-183.439c0-23.394 16.571-52.1 36.831-63.799l158.858-91.719c20.257-11.689 53.413-11.689 73.662 0l158.854 91.719c20.269 11.697 36.831 40.407 36.831 63.799v183.439zM375.046 198.331l-3.512-22.428c-5.404-34.317-23.779-46.474-64.038-46.474h-214.805c-7.025 0-10.268 3.785-9.187 10.808l3.243 20.264c1.081 7.026 5.404 10.806 12.43 10.806h208.052c10.268 0 17.293 4.863 18.374 14.591l0.27 2.432c0.27 1.889 0.27 2.704 0.27 3.783 0 7.296-4.863 11.079-13.781 11.079h-201.569c-7.025 0-9.998 3.512-8.917 10.538l14.859 94.029c1.081 7.026 5.404 10.809 12.429 10.809h243.177c7.026 0 10.27-3.783 9.187-10.809l-3.238-20.263c-1.083-7.026-5.404-10.809-12.43-10.809h-206.431l-5.134-31.882h171.304c31.072 0 50.257-9.727 50.257-36.208 0.002-3.24-0.27-6.483-0.81-10.266z" horiz-adv-x="465" data-tags="five" />
<glyph unicode="&#xe607;" d="M465.036 315.724c-0.004 23.386-16.565 52.094-36.832 63.789l-158.854 91.716c-20.254 11.695-53.409 11.695-73.662 0l-158.856-91.716c-20.258-11.691-36.831-40.403-36.831-63.789v-183.439c0-23.394 16.571-52.1 36.831-63.799l158.858-91.719c20.257-11.689 53.413-11.689 73.662 0l158.854 91.719c20.269 11.697 36.831 40.407 36.831 63.799v183.439zM383.289 195.901l-2.971-20.265c-1.351-7.026-5.675-10.808-12.7-10.808h-15.67l-3.785-24.857c-1.079-7.026-5.132-10.538-12.158-10.538h-26.478c-7.027 0-9.998 3.512-8.917 10.538l3.783 24.857h-213.728c-7.025 0-10.268 3.785-8.917 10.808l2.162 14.051c1.081 6.755 5.132 11.349 10.268 15.134l136.99 105.646c7.836 6.215 12.16 8.106 22.155 8.106h37.287c7.026 0 7.836-7.566 2.702-11.619l-130.234-100.243h148.070l15.942 101.324c1.081 7.025 5.132 10.538 12.158 10.538h26.481c7.026 0 9.995-3.512 8.915-10.538l-15.94-101.324h15.67c7.026-0.002 10.268-3.785 8.917-10.808z" horiz-adv-x="465" data-tags="four" />
<glyph unicode="&#xe608;" d="M465.036 132.284v183.439c-0.004 23.386-16.565 52.094-36.832 63.789l-158.854 91.716c-20.254 11.695-53.409 11.695-73.662 0l-158.856-91.716c-20.258-11.691-36.831-40.403-36.831-63.789v-183.439c0-23.394 16.571-52.1 36.831-63.799l158.858-91.719c20.257-11.689 53.413-11.689 73.662 0l158.854 91.719c20.269 11.697 36.831 40.407 36.831 63.799zM300.565 136.75h-201.405c-6.505 0-9.507 3.502-8.507 10.007l3.002 18.764c1.001 6.505 5.004 10.007 11.509 10.007h193.899c9.507 0 16.012 4.503 17.013 13.51l0.25 2.502c0.25 1.001 0.25 2.252 0.25 3.252 0 6.755-4.503 10.258-12.76 10.258h-168.88c-6.505 0-9.507 3.502-8.507 10.007l3.003 18.514c1.001 6.505 5.004 10.007 11.509 10.007h166.378c9.257 0 16.012 4.504 17.013 13.511l0.25 2.502c0.25 1.001 0.25 2.252 0.25 3.253 0 6.755-4.503 10.258-12.76 10.258h-191.398c-6.505 0-9.507 3.502-8.507 10.007l3.002 18.764c1.001 6.505 5.004 10.007 11.509 10.007h198.903c28.522 0 45.285-8.757 45.285-33.026 0-3.002-0.25-6.505-0.75-10.007l-1.001-6.255c-3.252-20.516-11.509-32.275-26.77-38.28 11.509-5.004 18.014-14.011 18.014-28.772 0-3.002-0.25-6.005-0.75-9.507l-1.001-6.255c-5.004-31.774-20.766-43.033-58.044-43.033z" horiz-adv-x="465" data-tags="three" />
<glyph unicode="&#xe609;" d="M465.036 315.724c-0.004 23.386-16.565 52.094-36.832 63.789l-158.854 91.716c-20.254 11.695-53.409 11.695-73.662 0l-158.856-91.716c-20.258-11.691-36.831-40.403-36.831-63.789v-183.439c0-23.394 16.571-52.1 36.831-63.799l158.858-91.719c20.257-11.689 53.413-11.689 73.662 0l158.854 91.719c20.269 11.697 36.831 40.407 36.831 63.799v183.439zM354.344 171.31c7.026 0 10.268-3.783 9.187-10.806l-3.243-20.264c-1.081-7.026-5.404-10.808-12.43-10.808h-256.688c-7.025 0-10.268 3.785-9.187 10.808l9.187 58.091c5.402 34.315 23.776 46.474 64.036 46.474h159.414c10.268 0 17.296 4.594 18.374 14.591l0.272 2.702c0.27 1.081 0.27 2.432 0.27 3.512 0 7.296-4.863 11.078-13.781 11.078h-198.593c-7.025 0-10.268 3.783-9.187 10.809l3.243 20.266c1.079 7.025 5.402 10.808 12.427 10.808h205.35c31.072 0 50.257-9.727 50.257-36.206 0-3.243-0.27-6.485-0.81-10.266l-3.512-22.428c-5.402-34.316-23.776-46.474-64.036-46.474h-159.418c-10.266 0-16.751-4.863-18.372-14.589l-2.704-17.296h219.943z" horiz-adv-x="465" data-tags="two" />
<glyph unicode="&#xe60a;" d="M465.036 315.724c-0.004 23.386-16.565 52.094-36.832 63.789l-158.854 91.716c-20.254 11.695-53.409 11.695-73.662 0l-158.856-91.716c-20.258-11.691-36.831-40.403-36.831-63.789v-183.439c0-23.394 16.571-52.1 36.831-63.799l158.858-91.719c20.257-11.689 53.413-11.689 73.662 0l158.854 91.719c20.269 11.697 36.831 40.407 36.831 63.799v183.439zM240.754 129.432h-26.478c-7.025 0-9.998 3.512-8.917 10.538l21.617 136.719h-32.156c-7.025 0-10.268 3.783-9.187 10.809l3.243 20.265c1.081 7.025 5.404 10.808 12.429 10.808h69.171c7.026 0 9.995-3.512 8.915-10.538l-26.478-168.063c-1.079-7.027-5.134-10.538-12.157-10.538z" horiz-adv-x="465" data-tags="one" />
<glyph unicode="&#xe60b;" d="M428.202 379.514l-158.852 91.715c-20.256 11.694-53.411 11.694-73.665 0l-158.857-91.715c-20.258-11.696-36.828-40.405-36.828-63.79v-183.438c0-23.395 16.57-52.101 36.828-63.798l158.861-91.719c20.256-11.692 53.411-11.692 73.665 0l158.853 91.719c20.265 11.692 36.83 40.404 36.83 63.798v183.438c-0.002 23.385-16.57 52.094-36.835 63.79zM143.595 112.485h-59.765v58.308h59.765v-58.308zM143.595 195.575h-59.765v58.309h59.765v-58.309zM143.595 277.207h-59.765v58.308h59.765v-58.308zM381.205 112.485h-218.656v58.308h218.656v-58.308zM381.205 195.575h-218.657v58.309h218.657v-58.309zM381.205 277.207h-218.657v58.308h218.657v-58.308z" horiz-adv-x="465" data-tags="Form" />
<glyph unicode="&#xe60c;" d="M465.036 315.724c-0.004 23.386-16.565 52.094-36.832 63.789l-158.854 91.716c-20.254 11.695-53.409 11.695-73.662 0l-158.856-91.716c-20.258-11.691-36.831-40.403-36.831-63.789v-183.439c0-23.394 16.571-52.1 36.831-63.799l158.858-91.719c20.257-11.689 53.413-11.689 73.662 0l158.854 91.719c20.269 11.697 36.831 40.407 36.831 63.799v183.439zM333.979 197.793h-199.137l-9.185-57.012c-1.081-7.564-5.404-11.349-12.97-11.349h-27.561c-7.566 0-10.808 3.785-9.727 11.349l19.185 121.317c5.674 35.666 23.508 56.471 65.118 56.471h220.212c7.564 0 10.805-3.783 9.726-11.349l-3.514-21.615c-1.079-7.566-5.673-11.348-13.238-11.348h-206.159c-12.97 0-21.076-7.026-22.968-19.994l-1.892-12.16h199.135c7.564 0 10.536-3.783 9.457-11.346l-3.514-21.617c-1.079-7.568-5.402-11.349-12.966-11.349z" horiz-adv-x="465" data-tags="Gravityforms, Logo" />
<glyph unicode="&#xe60d;" d="M428.203 379.515l-158.853 91.715c-20.255 11.694-53.41 11.694-73.665 0l-158.857-91.715c-20.258-11.694-36.829-40.405-36.829-63.789v-183.439c0-23.395 16.57-52.101 36.829-63.798l158.861-91.719c20.256-11.693 53.412-11.693 73.666 0l158.852 91.719c20.265 11.695 36.832 40.404 36.832 63.798v183.439c-0.003 23.385-16.57 52.095-36.835 63.79zM188.741 254.296l-80.419-30.976 80.419-31.669v-32.465l-115.404 50.020v27.758l115.404 50.029v-32.697zM260.111 287.674l-32.136-132.288c-1.063-4.361-2.007-7.806-2.802-10.329-0.794-2.521-2.026-4.507-3.667-5.906-1.64-1.427-4.047-2.125-7.18-2.125-7.788 0-11.701 3.387-11.701 10.106 0 1.76 0.761 6.147 2.302 13.195l32.019 132.288c1.675 7.029 3.286 11.849 4.81 14.456s4.508 3.903 8.956 3.903c3.831 0 6.745-0.914 8.771-2.764 2.022-1.831 3.035-4.352 3.035-7.575-0.003-2.373-0.82-6.691-2.406-12.96zM391.699 209.207l-115.404-50.255v32.465l80.647 31.66-80.647 31.202v32.238l115.404-49.796v-27.514z" horiz-adv-x="465" data-tags="markup, html" />
<glyph unicode="&#xe60e;" d="M428.203 379.515l-158.853 91.715c-20.255 11.694-53.41 11.694-73.665 0l-158.857-91.715c-20.258-11.694-36.829-40.405-36.829-63.789v-183.439c0-23.395 16.57-52.101 36.829-63.798l158.861-91.719c20.256-11.693 53.412-11.693 73.666 0l158.852 91.719c20.265 11.695 36.832 40.404 36.832 63.798v183.439c-0.003 23.385-16.57 52.095-36.835 63.79zM180.855 329.785c-7.315-1.596-12.29-3.718-14.933-6.375-4.051-4.071-6.077-11.201-6.077-21.382v-30.815c0-9.917-1.331-17.796-3.99-23.638-4.522-9.831-13.387-17.798-26.596-23.906 11.968-4.872 20.013-10.539 24.136-17.002 4.123-6.465 6.271-15.406 6.451-26.827v-33.602c0-9.828 2.376-16.913 7.136-21.249 2.643-2.568 7.268-4.827 13.876-6.774v-21.277l-9.418 0.267c-12.65 0.356-23.726 4.146-33.234 11.37-9.507 7.226-14.263 17.753-14.263 31.583v41.622c0 11.171-3.37 19.724-10.106 25.664-4.079 3.634-9.93 6.516-17.554 8.644v16.090c8.597 2.925 14.671 6.161 18.219 9.707 6.294 6.117 9.442 15.47 9.442 28.059v35.638c0 4.522 0.751 9.263 2.254 14.229 2.653 8.597 7.164 15.425 13.533 20.48 5.837 4.608 12.691 7.666 20.564 9.175 4.775 0.974 11.63 1.506 20.564 1.596v-21.28zM368.755 216.087c-7.536-2.128-13.253-4.877-17.154-8.245-7.005-6.029-10.506-14.717-10.506-26.064v-41.622c0-13.475-4.666-23.914-13.997-31.316-9.329-7.401-20.57-11.28-33.721-11.635l-9.464-0.267v21.277c6.649 1.949 11.303 4.252 13.962 6.906 4.522 4.427 6.87 11.468 7.050 21.116v33.602c0 12.572 2.446 21.89 7.339 27.956 4.894 6.064 12.678 11.354 23.357 15.873-11.656 5.665-19.688 12.107-24.091 19.322-4.404 7.217-6.605 16.625-6.605 28.223v30.813c0 9.828-1.575 16.513-4.72 20.053-3.149 3.541-8.579 6.108-16.291 7.704v21.279c8.886-0.090 15.728-0.621 20.527-1.596 7.906-1.508 14.837-4.567 20.793-9.175 5.954-4.611 10.084-10.286 12.397-17.022 2.309-6.739 3.465-12.634 3.465-17.686v-35.639c0-12.679 2.882-21.987 8.644-27.925 3.545-3.547 9.885-6.828 19.016-9.839v-16.091z" horiz-adv-x="465" data-tags="CSS" />
<glyph unicode="&#xe60f;" d="M428.203 379.515l-158.853 91.715c-20.255 11.694-53.41 11.694-73.665 0l-158.857-91.715c-20.258-11.694-36.829-40.405-36.829-63.789v-183.439c0-23.395 16.57-52.101 36.829-63.798l158.861-91.719c20.256-11.693 53.412-11.693 73.666 0l158.852 91.719c20.265 11.695 36.832 40.404 36.832 63.798v183.439c-0.003 23.385-16.57 52.095-36.835 63.79zM169.123 246.597c0-2.774-1.387-4.162-4.162-4.162h-75.131c-4.758 0-7.334-2.577-7.334-7.334v-22.201c0-4.758 2.577-7.335 7.334-7.335h75.13c2.774 0 4.162-1.387 4.162-4.162v-7.928c0-2.774-1.387-4.162-4.162-4.162h-80.284c-13.28 0-20.617 7.631-20.617 20.716v27.946c0 13.083 7.335 20.715 20.617 20.715h80.284c2.774 0 4.162-1.387 4.162-4.163v-7.93zM285.197 207.051c0-13.084-8.325-17.742-21.606-17.742h-81.77c-2.774 0-4.162 1.387-4.162 4.162v7.928c0 2.776 1.387 4.162 4.162 4.162h79.194c3.765 0 5.748 1.488 5.748 4.956v0.89c0 3.469-1.983 4.956-5.748 4.956h-63.236c-13.281 0-21.607 4.658-21.607 17.74v6.839c0 13.083 8.325 17.742 21.607 17.742h80.778c2.776 0 4.163-1.388 4.163-4.163v-7.929c0-2.774-1.387-4.162-4.163-4.162h-78.201c-3.767 0-5.748-1.586-5.748-4.955v-0.892c0-3.37 1.981-4.955 5.748-4.955h63.236c13.281 0 21.606-4.657 21.606-17.742v-6.838zM400.974 207.051c0-13.084-8.327-17.742-21.608-17.742h-81.769c-2.776 0-4.162 1.387-4.162 4.162v7.928c0 2.776 1.387 4.162 4.162 4.162h79.192c3.767 0 5.748 1.488 5.748 4.956v0.89c0 3.469-1.981 4.956-5.748 4.956h-63.235c-13.28 0-21.606 4.658-21.606 17.74v6.839c0 13.083 8.327 17.742 21.606 17.742h80.779c2.774 0 4.162-1.388 4.162-4.163v-7.929c0-2.774-1.387-4.162-4.162-4.162h-78.201c-3.767 0-5.749-1.586-5.749-4.955v-0.892c0-3.37 1.983-4.955 5.749-4.955h63.235c13.281 0 21.608-4.657 21.608-17.742v-6.838z" horiz-adv-x="465" data-tags="CSS" />
<glyph unicode="&#xe610;" d="M264.291 319.325c4.389 0 7.944 3.548 7.944 7.944s-3.553 7.944-7.944 7.944h-63.549c-4.392 0-7.944-3.548-7.944-7.944s3.55-7.944 7.944-7.944h63.549zM465.036 315.724c-0.004 23.386-16.565 52.094-36.832 63.789l-158.854 91.716c-20.254 11.695-53.409 11.695-73.662 0l-158.856-91.716c-20.258-11.691-36.831-40.403-36.831-63.789v-183.439c0-23.394 16.571-52.1 36.831-63.799l158.858-91.719c20.257-11.689 53.413-11.689 73.662 0l158.854 91.719c20.269 11.697 36.831 40.407 36.831 63.799v183.439zM256.349 160.452v-15.888h-15.888v-15.888h15.888v-7.944c0-13.152-10.678-23.83-23.831-23.83s-23.831 10.678-23.831 23.831v135.042h-15.888l-31.774 47.662 31.774 47.661h79.437l31.774-47.661-31.774-47.661h-15.888v-79.437h-15.888v-15.888h15.888z" horiz-adv-x="465" data-tags="Key" />
<glyph unicode="&#xe611;" d="M465.036 315.724c-0.004 23.386-16.565 52.094-36.832 63.789l-158.854 91.716c-20.254 11.695-53.409 11.695-73.662 0l-158.856-91.716c-20.258-11.691-36.831-40.403-36.831-63.789v-183.439c0-23.394 16.571-52.1 36.831-63.799l158.858-91.719c20.257-11.689 53.413-11.689 73.662 0l158.854 91.719c20.269 11.697 36.831 40.407 36.831 63.799v183.439zM232.389 94.762l-57.418 57.422 19.385 19.379 23.837-23.829v70.004h28.638v-69.774l23.606 23.6 19.385-19.379-57.432-57.424zM315.168 196.49h-54.241v19.031c0 9.127-7.399 16.524-16.535 16.524h-23.752c-9.141 0-16.541-7.398-16.541-16.524v-19.031h-54.233c-24.663 0-44.858 20.182-44.858 44.856 0 20.389 13.796 37.721 32.513 43.111-0.512 2.358-0.791 4.805-0.791 7.326 0 18.746 15.203 33.954 33.948 33.954 11.15 0 21.050-5.382 27.241-13.676 9.357 23.622 32.597 40.357 59.782 40.357 35.447 0 64.193-28.44 64.193-63.535 0-1.069-0.030-2.122-0.084-3.185 21.556-3.24 38.216-21.951 38.216-44.352 0.002-24.663-20.192-44.857-44.856-44.857z" horiz-adv-x="465" data-tags="download" />
<glyph unicode="&#xe612;" d="M465.036 315.724c-0.004 23.386-16.565 52.094-36.832 63.789l-158.854 91.716c-20.254 11.695-53.409 11.695-73.662 0l-158.856-91.716c-20.258-11.691-36.831-40.403-36.831-63.789v-183.439c0-23.394 16.571-52.1 36.831-63.799l158.858-91.719c20.257-11.689 53.413-11.689 73.662 0l158.854 91.719c20.269 11.697 36.831 40.407 36.831 63.799v183.439zM271.639 140.947l-24.346 24.361v-71.993h-29.554v72.233l-24.593-24.601-20.001 19.993 59.242 59.25 59.257-59.242-20.003-20.002zM317.796 188.502h-27.772l-46.005 45.998c-5.637 5.638-14.889 5.625-20.514 0l-46.004-45.998h-30.262c-25.451 0-46.281 20.822-46.281 46.284 0 21.036 14.233 38.92 33.546 44.478-0.536 2.434-0.822 4.96-0.822 7.556 0 19.343 15.692 35.035 35.033 35.035 11.499 0 21.716-5.553 28.1-14.111 9.661 24.373 33.64 41.64 61.681 41.64 36.578 0 66.239-29.345 66.239-65.555 0-1.101-0.028-2.19-0.082-3.285 22.231-3.34 39.425-22.647 39.425-45.759 0-25.445-20.836-46.284-46.281-46.284z" horiz-adv-x="465" data-tags="upload" />
<glyph unicode="&#xe613;" d="M158.888 242.643h58.633l4.594 28.642h-58.633c-9.185 0-15.131-4.323-16.481-13.24l-0.541-2.432c-0.272-1.081-0.272-1.892-0.272-2.972 0.002-6.755 4.594-9.998 12.7-9.998zM307.228 205.356h-59.172l-4.594-28.642h59.172c9.187 0 14.863 4.324 16.481 13.238l0.272 1.623c0.27 2.161 0.27 2.702 0.27 3.783 0 6.485-4.324 9.998-12.43 9.998zM465.036 315.724c-0.004 23.386-16.565 52.094-36.832 63.789l-158.854 91.716c-20.254 11.695-53.409 11.695-73.662 0l-158.856-91.716c-20.258-11.691-36.831-40.403-36.831-63.789v-183.439c0-23.394 16.571-52.1 36.831-63.799l158.858-91.719c20.257-11.689 53.413-11.689 73.662 0l158.854 91.719c20.269 11.697 36.831 40.407 36.831 63.799v183.439zM369.373 196.17l-2.432-14.861c-5.673-34.317-23.776-46.476-64.037-46.476h-65.927l-2.972-19.183c-1.081-7.026-5.134-10.538-12.16-10.538h-15.4c-7.025 0-9.998 3.512-8.917 10.538l2.972 19.183h-105.647c-7.025 0-10.268 3.785-9.187 10.808l3.243 20.265c1.081 7.026 5.402 10.806 12.43 10.806h105.645l4.594 28.642h-63.765c-31.072 0-50.257 9.726-50.257 35.935 0 3.243 0.272 6.755 0.811 10.538l2.432 15.131c5.404 34.315 23.778 46.204 64.038 46.204h64.036l2.972 19.183c1.351 7.026 5.404 10.538 12.429 10.538h15.4c7.026 0 9.998-3.512 8.644-10.538l-2.971-19.183h104.837c7.026 0 10.268-3.783 9.187-10.809l-3.243-20.265c-1.081-7.025-5.402-10.808-12.428-10.808h-105.109l-4.594-28.642h65.928c31.070 0 50.255-9.726 50.255-36.206 0.004-3.238-0.266-6.481-0.808-10.264z" horiz-adv-x="465" data-tags="dollar" />
<glyph unicode="&#xe614;" d="M235.309 329.195c-10.386 1.194-21.145-3.583-27.329-12.006l-0.012 0.025c-8.819-11.35-7.752-28.918 2.471-39.056 10.817-11.927 31.317-12.353 42.644-0.917 8.737 7.975 11.693 21.382 7.525 32.389-3.824 10.616-14.049 18.586-25.298 19.565zM231.025 284.063c-7.714 0.487-13.823 6.873-13.823 14.719 0 7.834 6.108 14.232 13.823 14.72v-29.438zM428.203 379.514l-158.852 91.715c-20.255 11.694-53.41 11.694-73.665 0l-158.859-91.715c-20.258-11.696-36.828-40.405-36.828-63.79v-183.438c0-23.395 16.57-52.101 36.828-63.798l158.861-91.719c20.256-11.692 53.411-11.692 73.664 0l158.852 91.719c20.265 11.695 36.832 40.404 36.832 63.798v183.438c-0.002 23.385-16.568 52.094-36.834 63.79zM230.644 37.873v-0.051c-0.065 0.005-0.132 0.017-0.198 0.026-0.067-0.009-0.136-0.022-0.202-0.027v0.054c-12.725 1.894-29.787 44.306-29.787 70.212 0 25.909 17.063 25.82 29.787 26.832v0.031c0.064-0.005 0.131-0.010 0.194-0.014 0.069 0.005 0.14 0.010 0.207 0.016v-0.032c12.725-1.012 29.787-0.921 29.787-26.831-0.002-25.909-17.063-68.32-29.787-70.216zM338.307 193.758c-3.576-17.924-7.006-35.895-10.781-53.771-2.098-9.209-14.548-13.418-21.86-7.542-12.143 10.143-23.983 20.653-36.123 30.809-9.187-8.842-21.399-14.73-34.198-15.452-14.742-1.041-29.348 5.072-40.042 15.075-8.715-6.668-16.786-14.672-25.297-21.813-4.108-3.299-7.536-7.649-12.405-9.908-7.548-3.239-17.264 1.584-18.978 9.707-3.881 17.474-7.945 34.935-11.713 52.434-3.063 14.813 2.362 30.94 13.78 40.858 6.607 5.545 13.303 10.982 20.034 16.386 1.871 0.993 0.931 3.262 1.043 4.93-2.008 41.104 12.032 81.739 34.3 115.888h-0.012c10.032 14.531 20.814 29.52 36.147 38.819 15.128-9.069 25.797-23.799 35.687-38.057 23.301-35.296 37.543-77.686 34.669-120.292 7.526-6.314 15.281-12.379 22.7-18.822 10.646-9.775 15.616-25.051 13.051-39.249z" horiz-adv-x="465" data-tags="Rocket" />
<glyph unicode="&#xe615;" d="M428.203 379.514l-158.852 91.715c-20.255 11.694-53.41 11.694-73.665 0l-158.859-91.715c-20.258-11.696-36.828-40.405-36.828-63.79v-183.438c0-23.395 16.57-52.101 36.828-63.798l158.861-91.719c20.256-11.692 53.411-11.692 73.664 0l158.852 91.719c20.265 11.695 36.832 40.404 36.832 63.798v183.438c-0.002 23.385-16.568 52.094-36.834 63.79zM387.075 214.338c0-10.661-8.649-19.319-19.319-19.319h-23.118c-2.733-10.606-6.898-20.599-12.337-29.805l16.335-16.343c7.542-7.557 7.542-19.771 0-27.329l-13.659-13.664c-7.542-7.546-19.772-7.546-27.339 0l-16.331 16.337c-9.207-5.43-19.205-9.605-29.81-12.331v-23.124c0-10.671-8.649-19.319-19.319-19.319h-19.321c-10.666 0-19.319 8.649-19.319 19.319v23.124c-10.611 2.726-20.608 6.901-29.81 12.347l-16.347-16.353c-7.547-7.546-19.773-7.546-27.319 0l-13.66 13.664c-7.552 7.558-7.541 19.793 0 27.329l16.337 16.343c-5.428 9.206-9.605 19.198-12.337 29.805h-23.123c-10.677 0-19.319 8.649-19.319 19.319v19.319c0 10.677 8.645 19.322 19.319 19.322h23.124c2.732 10.605 6.898 20.605 12.337 29.809l-16.337 16.338c-7.541 7.543-7.541 19.772 0 27.319l13.661 13.659c7.547 7.563 19.773 7.542 27.319 0l16.347-16.337c9.192 5.428 19.198 9.62 29.81 12.337v23.134c0 10.676 8.653 19.319 19.319 19.319h19.321c10.671 0 19.319-8.644 19.319-19.319v-23.124c10.605-2.717 20.603-6.898 29.81-12.337l16.331 16.334c7.565 7.564 19.777 7.564 27.339 0l13.659-13.657c7.527-7.528 7.542-19.776 0-27.319l-16.356-16.337c5.447-9.204 9.624-19.204 12.357-29.809l23.118-0.010c10.671 0 19.319-8.647 19.319-19.322v-19.319zM232.518 301.289c-42.679 0-77.28-34.599-77.28-77.281 0-42.674 34.599-77.28 77.279-77.28 42.673 0 77.279 34.603 77.279 77.279-0.002 42.682-34.606 77.281-77.279 77.281z" horiz-adv-x="465" data-tags="settings" />
<glyph unicode="&#xe616;" d="M465.036 315.724c-0.004 23.386-16.565 52.094-36.832 63.789l-158.854 91.716c-20.254 11.695-53.409 11.695-73.662 0l-158.856-91.716c-20.258-11.691-36.831-40.403-36.831-63.789v-183.439c0-23.394 16.571-52.1 36.831-63.799l158.858-91.719c20.257-11.689 53.413-11.689 73.662 0l158.854 91.719c20.269 11.697 36.831 40.407 36.831 63.799v183.439zM213.506 313.060l4.079 23.796c1.021 8.497 5.779 12.576 14.279 12.576h31.609c8.502 0 11.899-4.079 10.88-12.576l-4.077-23.796c-1.361-8.497-5.779-12.575-14.277-12.575h-31.614c-8.499 0-12.236 4.079-10.879 12.575zM278.090 135.962l-4.077-24.815c-1.361-8.495-5.779-12.575-14.277-12.575h-29.573c-28.212 0-43.51 13.599-43.51 39.090 0 3.402 0.339 7.48 1.021 11.557l18.014 113.534c1.361 8.499 6.119 12.577 14.617 12.577h31.613c8.499 0 11.899-4.079 10.536-12.577l-16.649-104.695c-0.345-1.359-0.345-2.039-0.345-2.72 0-4.079 2.042-6.797 7.818-6.797h14.277c8.497-0.002 11.899-4.079 10.534-12.577z" horiz-adv-x="465" data-tags="info" />
<glyph unicode="&#xe617;" d="M465.036 315.724c-0.004 23.386-16.565 52.094-36.832 63.789l-158.854 91.716c-20.254 11.695-53.409 11.695-73.662 0l-158.856-91.716c-20.258-11.691-36.831-40.403-36.831-63.789v-183.439c0-23.394 16.571-52.1 36.831-63.799l158.858-91.719c20.257-11.689 53.413-11.689 73.662 0l158.854 91.719c20.269 11.697 36.831 40.407 36.831 63.799v183.439zM232.565 96.539c-23.076 63.759-136.976 88.995-143.196 172.711-5.855 78.832 103.013 121.365 143.196 32.723 45.106 88.288 147.67 46.197 143.186-32.723-4.659-82.161-120.113-110.503-143.186-172.711z" horiz-adv-x="465" data-tags="heart, favorite" />
<glyph unicode="&#xe618;" d="M465.036 315.724c-0.004 23.386-16.565 52.094-36.832 63.789l-158.854 91.716c-20.254 11.695-53.409 11.695-73.662 0l-158.856-91.716c-20.258-11.691-36.831-40.403-36.831-63.789v-183.439c0-23.394 16.571-52.1 36.831-63.799l158.858-91.719c20.257-11.689 53.413-11.689 73.662 0l158.854 91.719c20.269 11.697 36.831 40.407 36.831 63.799v183.439zM232.513 139.264c-13.893 0-27.269 1.873-39.749 5.312l-70.79-42.149 25.123 64.565c-24.517 18.822-39.867 45.653-39.867 75.424 0 56.962 56.105 103.155 125.284 103.155 69.177 0 125.296-46.192 125.296-103.156-0.004-56.96-56.123-103.154-125.298-103.154z" horiz-adv-x="465" data-tags="chat" />
<glyph unicode="&#xe619;" d="M214.501 301.941c6.383 0 11.561 5.184 11.561 11.573 0 6.381-5.178 11.561-11.561 11.561s-11.563-5.18-11.563-11.561c0-6.389 5.18-11.573 11.563-11.573zM251.601 301.941c6.381 0 11.563 5.184 11.563 11.573 0 6.381-5.184 11.561-11.563 11.561-6.391 0-11.567-5.18-11.567-11.561-0.002-6.389 5.174-11.573 11.567-11.573zM465.036 315.724c-0.004 23.386-16.565 52.094-36.832 63.789l-158.854 91.716c-20.254 11.695-53.409 11.695-73.662 0l-158.856-91.716c-20.258-11.691-36.831-40.403-36.831-63.789v-183.439c0-23.394 16.571-52.1 36.831-63.799l158.858-91.719c20.257-11.689 53.413-11.689 73.662 0l158.854 91.719c20.269 11.697 36.831 40.407 36.831 63.799v183.439zM367.713 218.953c0-5.82-4.753-10.572-10.582-10.572h-51.016c-1.884-9.277-5.48-17.934-10.45-25.625l42.005-41.988c4.113-4.121 4.113-10.839 0-14.954l-0.066-0.070c-4.125-4.117-10.844-4.117-14.962 0l-40.938 40.93c-2.698-2.342-5.572-4.483-8.589-6.427-6.069-23.674-17.636-41.067-31.442-45.805v34.435c-3.005-0.366-6.054-0.572-9.159-0.572-2.31 0-4.595 0.108-6.853 0.31v-34.173c-13.478 4.625-24.823 21.298-31.004 44.11-4.041 2.364-7.848 5.080-11.361 8.13l-40.944-40.94c-4.123-4.117-10.845-4.117-14.962 0l-0.058 0.070c-4.123 4.115-4.123 10.832 0 14.954l42.016 42.007c-4.962 7.69-8.554 16.33-10.442 25.606h-51.011c-5.819 0-10.572 4.752-10.572 10.572v1.381c0 5.825 4.754 10.57 10.572 10.57h49.886c0.822 8.27 2.978 16.144 6.265 23.404l-36.713 36.71c-4.123 4.115-4.123 10.838 0 14.955l0.058 0.060c4.115 4.125 10.844 4.125 14.961 0l33.429-33.423c2.312 2.666 4.805 5.162 7.476 7.476-2.149 5.726-3.322 11.933-3.322 18.414 0 20.96 12.287 39.060 30.049 47.495v17.021c0 5.82 4.745 10.574 10.57 10.574h4.447v-23.066c2.458 0.349 4.966 0.538 7.51 0.538 2.708 0 5.362-0.204 7.95-0.605v23.134h4.458c5.816 0 10.57-4.753 10.57-10.574v-17.242c17.521-8.529 29.593-26.494 29.593-47.274 0-6.485-1.173-12.696-3.318-18.426 2.654-2.31 5.164-4.808 7.469-7.466l33.432 33.426c4.125 4.125 10.849 4.121 14.962 0l0.066-0.060c4.117-4.117 4.117-10.84 0-14.955l-36.721-36.713c3.288-7.26 5.454-15.133 6.267-23.396h49.887c5.829 0 10.582-4.745 10.582-10.57v-1.385z" horiz-adv-x="465" data-tags="bug" />
<glyph unicode="&#xe61a;" d="M336.065 294.765c-34.625 21.965-68.851 12.596-97.919-8.070v-136.814c30.069 18.791 70.182 16.548 97.919 8.366v136.517zM253.207 280.24c21.752 9.692 45.291 11.385 67.924 5.11v-12.361c-23.911 9.534-46.618 5.288-67.924-6.035v13.286zM253.207 256.316c21.752 9.681 45.291 11.383 67.924 5.106v-12.362c-23.911 9.537-46.618 5.286-67.924-6.041v13.296zM253.207 232.389c21.752 9.673 45.291 11.367 67.924 5.092v-12.356c-23.911 9.537-46.618 5.292-67.924-6.030v13.294zM321.131 177.267c-23.911 9.536-46.618 5.282-67.924-6.041v13.294c21.753 9.683 45.291 11.377 67.924 5.1v-12.353zM321.131 201.193c-23.911 9.536-46.618 5.29-67.924-6.034v13.288c21.753 9.685 45.291 11.385 67.924 5.106v-12.36zM223.083 286.695c-29.060 20.652-63.303 30.035-97.927 8.123v-136.497c27.735 8.11 67.864 10.346 97.927-8.438v136.814zM140.226 285.568c22.367 5.947 46.308 4.195 67.79-5.348v-13.28c-21.056 11.199-44.164 15.486-67.79 6.399v12.229zM140.226 261.642c22.367 5.947 46.308 4.187 67.79-5.356v-13.274c-21.056 11.192-44.164 15.48-67.79 6.401v12.23zM208.016 171.221c-21.056 11.19-44.164 15.48-67.79 6.399v12.229c22.367 5.945 46.308 4.193 67.79-5.35v-13.278zM208.016 195.147c-21.056 11.2-44.164 15.486-67.79 6.407v12.221c22.367 5.945 46.308 4.193 67.79-5.348v-13.28zM140.226 225.482v12.226c22.367 5.946 46.308 4.187 67.79-5.346v-13.284c-21.056 11.192-44.166 15.49-67.79 6.405zM465.036 315.724c-0.004 23.386-16.565 52.094-36.832 63.789l-158.854 91.716c-20.254 11.695-53.409 11.695-73.662 0l-158.856-91.716c-20.258-11.691-36.831-40.403-36.831-63.789v-183.439c0-23.394 16.571-52.1 36.831-63.799l158.858-91.719c20.257-11.689 53.413-11.689 73.662 0l158.854 91.719c20.269 11.697 36.831 40.407 36.831 63.799v183.439zM230.618 118.634c-37.669 30.123-90.394 30.123-128.050 0 0 70.286 0 118.111 0 188.405 37.467 29.841 90.382 29.987 128.050-0.13 37.655 30.119 90.38 30.119 128.050 0 0-70.294 0-118.119 0-188.405-37.671 30.253-90.394 30.253-128.050 0.13z" horiz-adv-x="465" data-tags="docs, documentation" />
<glyph unicode="&#xe61b;" d="M179 215.298v0.016h0.010v-0.016c7.594 0 14.493 3.478 19.513 9.097 5.102 5.707 8.25 13.623 8.25 22.377h-0.008v0.030h0.008c0 8.738-3.156 16.649-8.264 22.369h0.014c-5.020 5.618-11.919 9.095-19.513 9.095v-0.008h-0.010v0.008c-7.586 0-14.485-3.476-19.505-9.095-5.102-5.707-8.25-13.625-8.25-22.385h0.008v-0.014h-0.008c0-8.755 3.149-16.671 8.25-22.371 5.012-5.616 11.919-9.103 19.505-9.103zM253.929 259.664h85.614v-14.257h-85.614v14.257zM253.929 174.070h85.614v-14.269h-85.614v14.269zM253.929 288.202h85.614v-14.265h-85.614v14.265zM227.237 191.814l-32.199 17.339c-4.781-2.836-10.23-4.442-16.029-4.442v-0.014h-0.010v0.014c-5.791 0-11.246 1.597-16.020 4.442l-32.199-17.339c-3.347-1.796-5.284-5.058-5.284-8.853v-5.976c0-5.536 4.515-10.050 10.050-10.050h86.921c5.536 0 10.049 4.515 10.049 10.050v5.976c0.002 3.793-1.941 7.055-5.28 8.853zM465.036 315.724c-0.004 23.386-16.565 52.094-36.832 63.789l-158.854 91.716c-20.254 11.695-53.409 11.695-73.662 0l-158.856-91.716c-20.258-11.691-36.831-40.403-36.831-63.789v-183.439c0-23.394 16.571-52.1 36.831-63.799l158.858-91.719c20.257-11.689 53.413-11.689 73.662 0l158.854 91.719c20.269 11.697 36.831 40.407 36.831 63.799v183.439zM345.253 131.265h-225.464c-8.648 0-15.702 7.051-15.702 15.696v154.087c0 8.64 7.052 15.688 15.702 15.688h225.464c8.64 0 15.694-7.048 15.694-15.688v-154.087c-0.002-8.644-7.053-15.696-15.694-15.696zM253.929 231.135h85.614v-14.261h-85.614v14.261zM253.929 202.601h85.614v-14.265h-85.614v14.265z" horiz-adv-x="465" data-tags="vcard, contact" />
<glyph unicode="&#xe61c;" d="M465.036 315.724c-0.004 23.386-16.565 52.094-36.832 63.789l-158.854 91.716c-20.254 11.695-53.409 11.695-73.662 0l-158.856-91.716c-20.258-11.691-36.831-40.403-36.831-63.789v-183.439c0-23.394 16.571-52.1 36.831-63.799l158.858-91.719c20.257-11.689 53.413-11.689 73.662 0l158.854 91.719c20.269 11.697 36.831 40.407 36.831 63.799v183.439zM413.568 222.716c0-14.313-19.557-48.425-50.947-77.505-30.099-27.885-71.93-53.959-118.475-57.748-3.923-0.32-7.774-0.488-11.513-0.488h-0.062v0.086c-49.942 0.020-94.715 26.906-126.909 56.305-33.279 30.368-54.075 66.92-54.115 79.974h-0.074v0.030h0.074c0.040 12.96 20.806 49.759 54.033 80.466l0.038 0.030-0.042 0.042c32.203 29.761 76.999 57.008 126.991 57.040v0.082h0.062c4.047 0 8.086-0.176 12.113-0.526 46.456-4.047 88.13-30.792 118.105-59.104 31.242-29.532 50.719-63.917 50.719-77.439l-0.020-0.611v-0.096l0.022-0.536zM334.235 270.997c-24.377 23.037-57.567 44.733-93.085 47.829-2.796 0.238-5.637 0.361-8.518 0.361h-0.062v0.084c-37.419-0.010-72.702-22.037-98.712-46.084l-0.042 0.042c-24.977-23.090-40.569-44.629-40.589-49.863h0.092v-0.030h-0.092c0.020-5.142 15.602-26.31 40.549-49.090 26.030-23.748 61.333-45.495 98.792-45.515v0.082h0.062c2.892 0 5.638 0.114 8.24 0.332 35.621 2.888 68.881 23.995 93.302 46.63 22.956 21.25 37.317 40.88 37.543 46.794-0.020 0.495-0.020 0.993 0 1.487-0.192 5.496-14.533 25.278-37.479 46.94zM232.509 150.166c-40.778 0-73.849 33.065-73.849 73.841 0 10.768 2.368 21.423 6.922 31.204l66.929-31.204-25.257 69.375c8.096 2.935 16.645 4.452 25.257 4.452 40.765 0 73.839-33.064 73.839-73.827-0.004-40.777-33.075-73.841-73.841-73.841z" horiz-adv-x="465" data-tags="eye, view" />
<glyph unicode="&#xe61d;" d="M465.036 315.724c-0.004 23.386-16.565 52.094-36.832 63.789l-158.854 91.716c-20.254 11.695-53.409 11.695-73.662 0l-158.856-91.716c-20.258-11.691-36.831-40.403-36.831-63.789v-183.439c0-23.394 16.571-52.1 36.831-63.799l158.858-91.719c20.257-11.689 53.413-11.689 73.662 0l158.854 91.719c20.269 11.697 36.831 40.407 36.831 63.799v183.439zM232.669 59.264c-9.944 0-18.010 8.062-18.010 18.006 0 14.005 16.011 26.008 18.010 42.014 2.001-16.007 18.012-28.010 18.012-42.014 0-9.943-8.068-18.006-18.012-18.006zM266.038 156.901c0-6.913-5.488-13.942-12.196-15.62l-42.651-10.662c-6.709-1.675-12.194 2.61-12.194 9.522v75.422c0 6.911-4.001 16.566-8.889 21.459l-82.781 82.781c-4.888 4.888-3.231 8.887 3.681 8.887h243.019c6.913 0 8.569-3.999 3.683-8.887l-82.784-82.781c-4.888-4.89-8.887-14.547-8.887-21.459v-58.661z" horiz-adv-x="465" data-tags="filter" />
<glyph unicode="&#xe61e;" d="M465.036 315.724c-0.004 23.386-16.565 52.094-36.832 63.789l-158.854 91.716c-20.254 11.695-53.409 11.695-73.662 0l-158.856-91.716c-20.258-11.691-36.831-40.403-36.831-63.789v-183.439c0-23.394 16.571-52.1 36.831-63.799l158.858-91.719c20.257-11.689 53.413-11.689 73.662 0l158.854 91.719c20.269 11.697 36.831 40.407 36.831 63.799v183.439zM289.523 106.032l-58.393 36.815-58.143-36.010c-13.999-8.176-29.835 4.784-25.232 18.842l16.971 66.904-52.222 44.156c-12.1 10.782-4.674 29.849 10.124 29.815l68.883 4.538 25.874 63.304c6.513 14.829 26.948 13.664 31.482-0.417l25.608-64.101 68.212-5.026c16.12-1.621 21.318-21.418 9.329-30.083l-53.059-44.144 16.288-66.417c3.447-15.832-13.769-26.897-25.724-18.176z" horiz-adv-x="465" data-tags="star, favorite" />
<glyph unicode="&#xe61f;" d="M465.036 315.724c-0.004 23.386-16.565 52.094-36.832 63.789l-158.854 91.716c-20.254 11.695-53.409 11.695-73.662 0l-158.856-91.716c-20.258-11.691-36.831-40.403-36.831-63.789v-183.439c0-23.394 16.571-52.1 36.831-63.799l158.858-91.719c20.257-11.689 53.413-11.689 73.662 0l158.854 91.719c20.269 11.697 36.831 40.407 36.831 63.799v183.439zM351.656 119.064l-14.177-14.171c-10.338-10.338-27.213-10.338-37.551 0l-67.42 67.404-67.418-67.404c-10.322-10.338-27.213-10.338-37.533 0l-14.179 14.171c-10.338 10.338-10.338 27.193 0 37.531l67.42 67.402-67.42 67.412c-10.338 10.328-10.338 27.201 0 37.541l14.179 14.159c10.32 10.338 27.195 10.338 37.533 0l67.418-67.402 67.42 67.402c10.338 10.338 27.213 10.338 37.551 0l14.177-14.159c10.338-10.34 10.338-27.213 0-37.541l-67.42-67.402 67.42-67.412c10.338-10.338 10.338-27.193 0-37.531z" horiz-adv-x="465" data-tags="cross, remove, delete" />
<glyph unicode="&#xe620;" d="M465.036 315.724c-0.004 23.386-16.565 52.094-36.832 63.789l-158.854 91.716c-20.254 11.695-53.409 11.695-73.662 0l-158.856-91.716c-20.258-11.691-36.831-40.403-36.831-63.789v-183.439c0-23.394 16.571-52.1 36.831-63.799l158.858-91.719c20.257-11.689 53.413-11.689 73.662 0l158.854 91.719c20.269 11.697 36.831 40.407 36.831 63.799v183.439zM209.379 125.153l-97.725 97.697c-9.918 9.917-9.918 26.088 0 36.007l10.28 10.27c9.913 9.909 26.096 9.917 36.013 0.010l51.423-51.428 97.717 97.705c9.919 9.907 26.096 9.913 36.014 0l10.28-10.28c9.918-9.911 9.918-26.084 0-35.997l-144.003-143.985z" horiz-adv-x="465" data-tags="tick" />
<glyph unicode="&#xe621;" d="M344.603 272.038v24.019c0 4.339-3.667 8.006-8.006 8.006h-208.16c-4.34 0-8.006-3.667-8.006-8.006v-24.019h224.173zM120.43 224.001v-72.055c0-4.339 3.667-8.006 8.006-8.006h208.16c4.339 0 8.006 3.667 8.006 8.006v72.055h-224.173zM152.456 159.952h-16.012v32.024h16.012v-32.024zM184.48 159.952h-16.012v32.024h16.012v-32.024zM216.505 159.952h-16.012v32.024h16.012v-32.024zM465.036 315.724c-0.004 23.386-16.565 52.094-36.832 63.789l-158.854 91.716c-20.254 11.695-53.409 11.695-73.662 0l-158.856-91.716c-20.258-11.691-36.831-40.403-36.831-63.789v-183.439c0-23.394 16.571-52.1 36.831-63.799l158.858-91.719c20.257-11.689 53.413-11.689 73.662 0l158.854 91.719c20.269 11.697 36.831 40.407 36.831 63.799v183.439zM336.597 127.927h-208.16c-13.212 0-24.019 10.808-24.019 24.019v144.111c0 13.212 10.806 24.019 24.019 24.019h208.16c13.21 0 24.019-10.807 24.019-24.019v-144.111c0-13.21-10.808-24.019-24.019-24.019z" horiz-adv-x="465" data-tags="credit" />
<glyph unicode="&#xe622;" d="M465.036 315.724c-0.004 23.386-16.565 52.094-36.832 63.789l-158.854 91.716c-20.254 11.695-53.409 11.695-73.662 0l-158.856-91.716c-20.258-11.691-36.831-40.403-36.831-63.789v-183.439c0-23.394 16.571-52.1 36.831-63.799l158.858-91.719c20.257-11.689 53.413-11.689 73.662 0l158.854 91.719c20.269 11.697 36.831 40.407 36.831 63.799v183.439zM329.035 95.312h-193.032c-13.266 0-24.13 10.853-24.13 24.128v209.119c0 13.266 10.865 24.131 24.13 24.131h193.032c13.276 0 24.13-10.865 24.13-24.131v-209.121c0-13.274-10.854-24.127-24.13-24.127zM320.995 320.515h-176.952v-193.034h176.95v193.034zM176.215 272.258h112.607v-16.089h-112.606v16.089zM288.82 159.654h-112.605v16.087h112.607v-16.087zM288.82 191.826h-112.605v16.087h112.607v-16.087zM176.215 224.001v16.084h112.607v-16.084h-112.606z" horiz-adv-x="465" data-tags="file" />
<glyph unicode="&#xe623;" d="M276.773 250.899c0 39.493-32.035 71.531-71.545 71.531-39.517 0-71.553-32.038-71.553-71.531 0-39.512 32.036-71.551 71.553-71.551 39.511 0 71.545 32.038 71.545 71.551zM465.036 315.724c-0.004 23.386-16.565 52.094-36.832 63.789l-158.854 91.716c-20.254 11.695-53.409 11.695-73.662 0l-158.856-91.716c-20.258-11.691-36.831-40.403-36.831-63.789v-183.439c0-23.394 16.571-52.1 36.831-63.799l158.858-91.719c20.257-11.689 53.413-11.689 73.662 0l158.854 91.719c20.269 11.697 36.831 40.407 36.831 63.799v183.439zM355.84 102.647l-1.543-1.549c-5.976-5.969-15.718-5.969-21.69 0l-68.43 68.423c-16.554-12.027-36.923-19.12-58.947-19.12-55.502 0-100.511 44.998-100.511 100.5 0 55.481 45.007 100.481 100.511 100.481 55.498 0 100.516-45 100.516-100.481 0-21.625-6.839-41.644-18.462-58.032l68.559-68.543c5.974-5.976 5.974-15.71 0-21.676z" horiz-adv-x="465" data-tags="search" />
<glyph unicode="&#xe624;" d="M428.204 379.512l-158.854 91.716c-20.254 11.695-53.409 11.695-73.662 0l-158.856-91.716c-20.258-11.691-36.831-40.403-36.831-63.789v-183.439c0-23.394 16.571-52.1 36.831-63.799l158.858-91.719c20.257-11.689 53.413-11.689 73.662 0l158.854 91.719c20.269 11.697 36.831 40.407 36.831 63.799v183.439c-0.004 23.386-16.565 52.096-36.832 63.789z" horiz-adv-x="465" data-tags="bullet" />
<glyph unicode="&#xe625;" d="M438.32 106.765h-411.601c-15.788 0-28.662 12.874-28.662 28.674v177.135c0 15.786 12.874 28.66 28.662 28.66h411.589c15.786 0.014 28.674-12.874 28.674-28.66v-177.135c0-15.8-12.878-28.674-28.662-28.674zM193.583 289.025c0 7.202-5.839 13.040-13.026 13.040h-130.266c-7.188 0-13.026-5.839-13.026-13.040v-130.256c0-7.202 5.838-13.026 13.026-13.026h130.266c7.188 0 13.026 5.825 13.026 13.026v130.256z" horiz-adv-x="465" data-tags="off, slide" />
<glyph unicode="&#xe626;" d="M-1.944 135.441v177.132c0 15.786 12.888 28.674 28.674 28.66h411.589c15.79 0 28.662-12.874 28.662-28.66v-177.135c0-15.802-12.874-28.674-28.662-28.674h-411.601c-15.786 0-28.662 12.874-28.662 28.676zM271.455 158.771c0-7.202 5.839-13.026 13.028-13.026h130.264c7.19 0 13.028 5.825 13.028 13.026v130.254c0 7.202-5.839 13.040-13.028 13.040h-130.264c-7.19 0-13.028-5.839-13.028-13.040v-130.254z" horiz-adv-x="465" data-tags="on, slide" />
<glyph unicode="&#xe627;" d="M250.823 187.387c0 10.116-8.189 18.306-18.306 18.306-10.116 0-18.304-8.19-18.304-18.306 0-5.683 2.754-10.584 6.826-13.938l-6.826-40.978h36.608l-6.826 40.978c4.071 3.354 6.827 8.257 6.827 13.938zM287.433 235.604v43.308c0 30.289-24.631 54.916-54.916 54.916s-54.916-24.625-54.916-54.916v-43.308c36.146 8.584 73.709 8.584 109.832 0zM465.036 315.724c-0.004 23.386-16.565 52.094-36.832 63.789l-158.854 91.716c-20.254 11.695-53.409 11.695-73.662 0l-158.856-91.716c-20.258-11.691-36.831-40.403-36.831-63.789v-183.439c0-23.394 16.571-52.1 36.831-63.799l158.858-91.719c20.257-11.689 53.413-11.689 73.662 0l158.854 91.719c20.269 11.697 36.831 40.407 36.831 63.799v183.439zM324.043 114.166c-58.577-24.397-124.474-24.397-183.051 0v109.83c6.006 2.508 12.157 4.576 18.306 6.583v48.331c0 40.439 32.783 73.222 73.22 73.222 40.433 0 73.221-32.783 73.221-73.222v-48.331c6.149-2.007 12.3-4.087 18.306-6.583v-109.83z" horiz-adv-x="465" data-tags="Locked" />
<glyph unicode="&#xe628;" d="M256 480c-141.385 0-256-114.615-256-256s114.615-256 256-256 256 114.615 256 256-114.615 256-256 256zM256 352c70.692 0 128-57.308 128-128s-57.308-128-128-128-128 57.308-128 128 57.308 128 128 128zM408.735 71.265c-40.797-40.797-95.040-63.265-152.735-63.265-57.696 0-111.938 22.468-152.735 63.265s-63.265 95.039-63.265 152.735c0 57.695 22.468 111.938 63.265 152.735l33.941-33.941c0 0 0 0 0 0-65.503-65.503-65.503-172.085 0-237.588 31.731-31.731 73.919-49.206 118.794-49.206s87.062 17.475 118.794 49.206c65.503 65.503 65.503 172.084 0 237.588l33.941 33.941c40.797-40.797 63.265-95.040 63.265-152.735 0-57.696-22.468-111.938-63.265-152.735z" horiz-adv-x="465" data-tags="spinner, update, cycle, refresh" />
<glyph unicode="&#xe629;" d="M432 416l-240-240-112 112-80-80 192-192 320 320z" data-tags="checkmark" />
<glyph unicode="&#xe62a;" d="M507.331 68.67c-0.002 0.002-0.004 0.004-0.006 0.005l-155.322 155.325 155.322 155.325c0.002 0.002 0.004 0.003 0.006 0.005 1.672 1.673 2.881 3.627 3.656 5.708 2.123 5.688 0.912 12.341-3.662 16.915l-73.373 73.373c-4.574 4.573-11.225 5.783-16.914 3.66-2.080-0.775-4.035-1.984-5.709-3.655 0-0.002-0.002-0.003-0.004-0.005l-155.324-155.326-155.324 155.325c-0.002 0.002-0.003 0.003-0.005 0.005-1.673 1.671-3.627 2.88-5.707 3.655-5.69 2.124-12.341 0.913-16.915-3.66l-73.374-73.374c-4.574-4.574-5.784-11.226-3.661-16.914 0.776-2.080 1.985-4.036 3.656-5.708 0.002-0.001 0.003-0.003 0.005-0.005l155.325-155.324-155.325-155.326c-0.001-0.002-0.003-0.003-0.004-0.005-1.671-1.673-2.88-3.627-3.657-5.707-2.124-5.688-0.913-12.341 3.661-16.915l73.374-73.373c4.575-4.574 11.226-5.784 16.915-3.661 2.080 0.776 4.035 1.985 5.708 3.656 0.001 0.002 0.003 0.003 0.005 0.005l155.324 155.325 155.324-155.325c0.002-0.001 0.004-0.003 0.006-0.004 1.674-1.672 3.627-2.881 5.707-3.657 5.689-2.123 12.342-0.913 16.914 3.661l73.373 73.374c4.574 4.574 5.785 11.227 3.662 16.915-0.776 2.080-1.985 4.034-3.657 5.707z" data-tags="close" />
<glyph unicode="&#xe62b;" d="M496.131 44.302l-121.276 103.147c-12.537 11.283-25.945 16.463-36.776 15.963 28.628 33.534 45.921 77.039 45.921 124.588 0 106.039-85.961 192-192 192s-192-85.961-192-192c0-106.039 85.961-192 192-192 47.549 0 91.054 17.293 124.588 45.922-0.5-10.831 4.68-24.239 15.963-36.776l103.147-121.276c17.661-19.623 46.511-21.277 64.11-3.678s15.946 46.449-3.677 64.11zM192 160c-70.692 0-128 57.308-128 128s57.308 128 128 128 128-57.308 128-128-57.307-128-128-128z" data-tags="search" />
<glyph unicode="&#xe62c;" d="M432 480c44.182 0 80-35.817 80-80 0-18.010-5.955-34.629-16-48l-32-32-112 112 32 32c13.371 10.045 29.989 16 48 16zM32 112l-32-144 144 32 296 296-112 112-296-296zM357.789 298.211l-224-224-27.578 27.578 224 224 27.578-27.578z" data-tags="pencil" />
<glyph unicode="&#xe62d;" d="M400 416h-288c-26.51 0-48-21.49-48-48v-16h384v16c0 26.51-21.49 48-48 48zM316.16 448l7.058-50.5h-134.436l7.057 50.5h120.321zM320 480h-128c-13.2 0-25.495-10.696-27.321-23.769l-9.357-66.962c-1.827-13.073 7.478-23.769 20.678-23.769h160c13.2 0 22.505 10.696 20.679 23.769l-9.357 66.962c-1.827 13.073-14.122 23.769-27.322 23.769v0zM408 320h-304c-17.6 0-30.696-14.341-29.103-31.869l26.206-288.263c1.593-17.527 17.297-31.868 34.897-31.868h240c17.6 0 33.304 14.341 34.897 31.868l26.205 288.263c1.594 17.528-11.502 31.869-29.102 31.869zM192 32h-48l-16 224h64v-224zM288 32h-64v224h64v-224zM368 32h-48v224h64l-16-224z" data-tags="remove" />
<glyph unicode="&#xe62e;" d="M512 224c0-141.385-114.615-256-256-256s-256 114.615-256 256 114.615 256 256 256 256-114.615 256-256zM48 224c0-114.875 93.125-208 208-208s208 93.125 208 208-93.125 208-208 208-208-93.125-208-208zM278.627 374.628l128-128.001c12.497-12.496 12.497-32.757 0-45.254s-32.758-12.497-45.255 0l-73.372 73.372v-178.745c0-17.673-14.327-32-32-32s-32 14.327-32 32v178.745l-73.372-73.373c-12.497-12.497-32.759-12.497-45.256 0-6.248 6.249-9.372 14.439-9.372 22.628s3.124 16.379 9.372 22.627l128 128.001c12.497 12.496 32.759 12.496 45.255 0z" data-tags="arrow-up" />
<glyph unicode="&#xe62f;" d="M512 224c0 141.385-114.615 256-256 256s-256-114.615-256-256 114.615-256 256-256 256 114.615 256 256zM48 224c0 114.875 93.125 208 208 208s208-93.125 208-208-93.125-208-208-208-208 93.125-208 208zM278.627 73.372l128 128.001c12.497 12.496 12.497 32.757 0 45.254s-32.758 12.497-45.255 0l-73.372-73.372v178.745c0 17.673-14.327 32-32 32s-32-14.327-32-32v-178.745l-73.372 73.373c-12.497 12.497-32.759 12.497-45.256 0-6.248-6.249-9.372-14.439-9.372-22.628s3.124-16.379 9.372-22.627l128-128.001c12.497-12.496 32.759-12.496 45.255 0z" data-tags="arrow-down" />
<glyph unicode="&#xe630;" d="M256 480c141.385 0 256-114.615 256-256s-114.615-256-256-256-256 114.615-256 256 114.615 256 256 256zM256 16c114.875 0 208 93.125 208 208s-93.125 208-208 208-208-93.125-208-208 93.125-208 208-208zM105.372 246.627l128.001 128c12.496 12.497 32.757 12.497 45.254 0s12.497-32.758 0-45.255l-73.372-73.372h178.745c17.673 0 32-14.327 32-32s-14.327-32-32-32h-178.745l73.373-73.372c12.497-12.497 12.497-32.759 0-45.256-6.249-6.248-14.439-9.372-22.628-9.372s-16.379 3.124-22.627 9.372l-128.001 128c-12.496 12.497-12.496 32.759 0 45.255z" data-tags="arrow-left" />
<glyph unicode="&#xe631;" d="M256 480c-141.385 0-256-114.615-256-256s114.615-256 256-256 256 114.615 256 256-114.615 256-256 256zM256 16c-114.875 0-208 93.125-208 208s93.125 208 208 208 208-93.125 208-208-93.125-208-208-208zM406.628 246.627l-128.001 128c-12.496 12.497-32.757 12.497-45.254 0s-12.497-32.758 0-45.255l73.372-73.372h-178.745c-17.673 0-32-14.327-32-32s14.327-32 32-32h178.745l-73.373-73.372c-12.497-12.497-12.497-32.759 0-45.256 6.249-6.248 14.439-9.372 22.628-9.372s16.379 3.124 22.627 9.372l128.001 128c12.496 12.497 12.496 32.759 0 45.255z" data-tags="arrow-right" />
<glyph unicode="&#xe632;" d="M256-32c-141.375 0-256 114.609-256 256s114.625 256 256 256c141.391 0 256-114.609 256-256s-114.609-256-256-256zM256 416c-106.031 0-192-85.969-192-192s85.969-192 192-192c106.047 0 192 85.969 192 192s-85.953 192-192 192zM288 96h-64v96h-96v64h96v96h64v-96h96v-64h-96v-96z" data-tags="add" />
<glyph unicode="&#xe633;" d="M256 480c-141.375 0-256-114.625-256-256 0-141.391 114.625-256 256-256 141.391 0 256 114.609 256 256 0 141.375-114.609 256-256 256zM256 32c-106.031 0-192 85.969-192 192s85.969 192 192 192c106.047 0 192-85.969 192-192s-85.953-192-192-192zM128 192h256v64h-256v-64z" data-tags="subtract" />
</font>
</defs>
</svg>
